Details for this torrent 

The Wolverine (2013) DVDRip XviD-MAX
Type:
Video > Movies
Files:
7
Size:
1.45 GiB (1561298803 Bytes)

Spoken language(s):
English
Tag(s):
The Wolverine 2013 DVDRip XviD MAX

Uploaded:
2013-11-06 07:39:57 GMT
By:
extremezone VIP

Seeders:
126
Leechers:
45
Comments
32  

Info Hash:
 
F86E3A675922D81451B84A99DAE8C3C4D189AFD5
picture




(Problems with magnets links are fixed by upgrading your torrent client!)
 http://img89.imageshack.us/img89/7999/te5f.jpg

Screens:
 
http://img689.imageshack.us/img689/7434/q26c.jpg 
http://img543.imageshack.us/img543/8376/idix.jpg 
http://img69.imageshack.us/img69/9325/9ydl.jpg 
http://img96.imageshack.us/img96/2571/mbce.jpg

ScreenCaps:
 
http://cdn.piczend.com/images/RU9avS11/1383719635_screencaps.jpeg

The Wolverine (2013) DVDRip XviD-MAX
Format                                   : AVI
Format/Info                              : Audio Video Interleave
Format profile                           : OpenDML
Format settings                          : rec
File size                                : 1.45 GiB
Duration                                 : 2h 6mn
Overall bit rate                         : 1 643 Kbps
Writing application                      : VirtualDubMod 1.5.10.2 (build 2542/release)
Writing library                          : VirtualDubMod build 2542/release
Original source form                     : MAX TORRENTZ
Copyright                                : SIGISMUNT

Video
ID                                       : 0
Format                                   : MPEG-4 Visual
Format profile                           : Advanced Simple@L5
Format settings, BVOP                    : 2
Format settings, QPel                    : No
Format settings, GMC                     : No warppoints
Format settings, Matrix                  : Custom
Codec ID                                 : XVID
Codec ID/Hint                            : XviD
Duration                                 : 2h 6mn
Bit rate                                 : 1 254 Kbps
Width                                    : 720 pixels
Height                                   : 304 pixels
Display aspect ratio                     : 2.35:1
Frame rate                               : 23.976 fps
Color space                              : YUV
Chroma subsampling                       : 4:2:0
Bit depth                                : 8 bits
Scan type                                : Progressive
Compression mode                         : Lossy
Bits/(Pixel*Frame)                       : 0.239
Stream size                              : 1.10 GiB (76%)
Writing library                          : XviD 1.2.1 (UTC 2008-12-04)

Audio
ID                                       : 1
Format                                   : AC-3
Format/Info                              : Audio Coding 3
Mode extension                           : CM (complete main)
Format settings, Endianness              : Big
Codec ID                                 : 2000
Duration                                 : 2h 6mn
Bit rate mode                            : Constant
Bit rate                                 : 384 Kbps
Channel(s)                               : 6 channels
Channel positions                        : Front: L C R, Side: L R, LFE
Sampling rate                            : 48.0 KHz
Bit depth                                : 16 bits
Compression mode                         : Lossy
Stream size                              : 346 MiB (23%)
Alignment                                : Aligned on interleaves
Interleave, duration                     : 64 ms (1.53 video frames)
Interleave, preload duration             : 192 ms

Source: DVD (perfect a/v/sync quality,sample included)
This torrent is not seedbox supported,please seed it to the MAX

Note:If you have something to offer as early releases,seedboxes,
links,accounts,etc please contact us on torentz 3xforum ro

The Wolverine (2013) DVDRip XviD-MAX Torrent Free Download
 
http://thepiratebay.se/user/extremezone/0/7/0

How To Get Your MAXSPEED (uTorrent)

Torrent Client - Preferences - Bandwidth - Number of connections - Set aprox. 500 for each
Torrent Client - Preferences - BiTorrent - Protocol Encryption - Forced
Bandwidth Allocation - High (Set download/upload limit - Unlimited)
Stop Other Active Torrents - Start downloading and wait for connections.
Enjoy and Seed for at least 1:1 ratio. Don't forget to say thanks/leave reviews.
If screens/Caps image host is dead google search "release name""screens" or "sample".
Greets to all actual/future p2p/scene QUALITY groups and affiliate websites.
Don't trust IMDb robot or bad ratings,always watch some trailers first.
Ignore stupid comments/fake/mislabeled/no-DVDrips/CAM/TS/RAR uploads.
Please spread this release/torrent to your friends/forums/etc.
If you need translation subs visit some subtitles sites.
Report if you see online streaming or other spam links.
Recommended movie player VLC PLAYER.		

Comments

thx extreme
A:9.5
V:9.5
M:3
SaM at 2013-11-07 20:02 CET:

English Subs for Foreign Parts only can be downloaded from: http://subscene.com/subtitles/the-wolverine/english/814833
V: 10
A: 10

Great Torrent! Thanks!

http://www.imdb.com/title/tt1430132/
Good work, thanks.
V-10/A-10/M-10
Half the dialog is in JANAPESE, and no subs line up OK - maybe someone has a link for this major problem.
Previous 1 2